<?xml version="1.0" standalone="no"?> <!DOCTYPE svg PUBLIC "-//W3C//DTD SVG 1.0//EN" "http://www.w3.org/TR/2001/REC-SVG-20010904/DTD/svg10.dtd" > <svg xmlns="http://www.w3.org/2000/svg" width="100%" height="100%">
<defs >
<font id="PetitaLight" horiz-adv-x="400" ><font-face
    font-family="PetitaLight"
    units-per-em="1000"
    panose-1="2 0 6 6 4 0 0 2 0 3"
    ascent="917"
    descent="-200"
    alphabetic="0" />
<missing-glyph horiz-adv-x="500" />
<glyph unicode=" " glyph-name="space" horiz-adv-x="278" />
<glyph unicode="!" glyph-name="exclam" horiz-adv-x="177" d="M121 682H56L73 192H104L121 682ZM121 0V97H56V0H121Z" />
<glyph unicode="&quot;" glyph-name="quotedbl" horiz-adv-x="278" d="M241 570V684H175V571L187 450H229L241 570ZM104 570V684H38V571L50 450H92L104 570Z" />
<glyph unicode="#" glyph-name="numbersign" horiz-adv-x="660" d="M583 210V256H452L491 447H583V493H501L543 698H496L454 493H266L308 698H261L219 493H77V447H209L170 256H77V210H160L117 0H164L207 210H395L352 0H399L442 210H583ZM444 447L405 256H217L256
447H444Z" />
<glyph unicode="$" glyph-name="dollar" horiz-adv-x="521" d="M476 165Q476 241 429 282T264 359Q179 385 137 415Q97 442 97 494Q97 546 143 580Q190 615 255 615Q318 615 367 592Q390 581 410 570T446 545V600Q417 623 370 642Q336 656 283 661L284 741H236L235
661Q161 655 107 610Q45 560 45 488Q45 415 91 378Q136 342 235 313Q329 285 378 253Q425 221 425 164Q425 111 378 73Q332 36 263 36Q217 36 157 59Q128 70 99 87T40 126V71Q73 40 132 14Q155 3 181 -2T236 -10V-117H284V-10Q359 -3 413 41Q476 93 476 165Z" />
<glyph unicode="%" glyph-name="percent" horiz-adv-x="698" d="M341 531Q341 597 294 644T180 691Q115 691 66 644Q19 597 19 531Q19 466 66 417Q113 370 180 370Q246 370 294 418Q341 465 341 531ZM298 529Q298 482 263 447Q229 413 181 413Q132 413 97 448T62
532Q62 579 97 614Q131 648 182 648Q229 648 264 613Q298 579 298 529ZM646 687H595L45 -11H96L646 687ZM680 147Q680 213 632 260Q585 307 518 307Q453 307 404 260Q357 213 357 147Q357 81 405 35Q452 -12 518 -12Q584 -12 633 35Q680 82 680 147ZM637 145Q637
99 602 64Q567 31 519 31Q470 31 435 66Q400 99 400 148Q400 195 436 230Q470 264 520 264Q568 264 603 229Q637 193 637 145Z" />
<glyph unicode="&amp;" glyph-name="ampersand" horiz-adv-x="615" d="M609 0L468 148Q493 181 516 226Q544 281 564 340H508Q498 311 487 286T465 240Q458 227 450 213T432 185L278 347Q336 375 375 416Q421 462 421 529Q421 595 375 632Q331 669 269 669Q205
669 158 626Q110 584 110 523Q110 479 132 442Q154 403 186 371L196 361Q125 334 76 280Q26 224 26 154Q26 89 71 40T204 -9Q283 -9 344 26Q393 55 438 109L542 0H609ZM372 524Q372 480 335 441Q303 409 243 384L233 394Q219 408 206 424T182 457Q161 491 161 524Q161
569 195 594Q230 620 270 620Q310 620 342 593Q372 567 372 524ZM403 145Q361 93 317 67Q270 40 213 40Q154 40 119 71Q83 102 83 163Q83 220 125 259T231 325L403 145Z" />
<glyph unicode="&apos;" glyph-name="quotesingle" horiz-adv-x="222" d="M144 570V684H78V571L90 450H132L144 570Z" />
<glyph unicode="(" glyph-name="parenleft" horiz-adv-x="333" d="M325 -220Q247 -153 189 -35Q131 82 131 231Q131 377 190 497Q249 616 325 682H274Q206 619 142 503Q80 387 80 231Q80 73 143 -42Q204 -156 274 -220H325Z" />
<glyph unicode=")" glyph-name="parenright" horiz-adv-x="333" d="M253 231Q253 388 190 504Q127 619 57 682H6Q84 616 143 497Q202 377 202 231Q202 85 143 -35Q84 -154 6 -220H57Q126 -158 190 -41Q253 74 253 231Z" />
<glyph unicode="*" glyph-name="asterisk" horiz-adv-x="469" d="M422 409Q400 418 384 425T352 440T314 460T260 488Q293 505 314 516T351 535T384 551T422 567L397 612Q378 597 364 587T334 567T298 544T246 511Q248 548 249 571T251 614T254 650T259 691H209Q212
667 213 650T216 614T219 572T222 511Q191 531 171 544T134 567T104 587T71 612L46 567Q68 558 84 551T116 536T154 516T208 488Q175 471 154 460T117 441T84 425T46 409L71 364Q90 379 104 389T134 409T170 432T222 465Q220 428 219 405T217 362T214 326T209 285H259Q256
309 255 326T252 362T249 404T246 465Q277 445 297 432T334 409T364 389T397 364L422 409Z" />
<glyph unicode="+" glyph-name="plus" horiz-adv-x="660" d="M592 331V375H352V612H308V375H68V331H308V91H352V331H592Z" />
<glyph unicode="," glyph-name="comma" horiz-adv-x="177" d="M121 17V97H56V0H77Q77 -36 70 -53Q67 -62 59 -69T46 -82V-117Q60 -106 77 -92T103 -59Q121 -22 121 17Z" />
<glyph unicode="-" glyph-name="hyphen" horiz-adv-x="313" d="M275 226V273H38V226H275Z" />
<glyph unicode="." glyph-name="period" horiz-adv-x="177" d="M120 0V98H56V0H120Z" />
<glyph unicode="/" glyph-name="slash" horiz-adv-x="281" d="M270 691H223L3 -9H50L270 691Z" />
<glyph unicode="0" glyph-name="zero" horiz-adv-x="500" d="M469 338V344Q469 496 410 594Q352 691 251 691Q151 691 91 594Q32 496 32 344V338Q32 186 91 88Q149 -9 250 -9Q350 -9 410 88Q469 186 469 338ZM417 337Q417 210 370 124Q324 39 251 39Q176 39 130
124T84 337V345Q84 472 131 558Q177 643 250 643Q325 643 371 558Q417 471 417 345V337Z" />
<glyph unicode="1" glyph-name="one" horiz-adv-x="335" d="M257 0V682H205V630L19 445L54 409L205 560V0H257Z" />
<glyph unicode="2" glyph-name="two" horiz-adv-x="500" d="M470 0V47H153Q175 72 195 96T236 146Q255 171 273 196T310 248Q324 268 340 295T373 358Q405 430 405 493Q405 577 347 634Q290 691 204 691Q147 691 107 669Q64 647 45 629V568Q79 600 115 622Q152
643 200 643Q266 643 309 600Q353 556 353 492Q353 433 328 377Q315 348 300 320T265 262Q215 189 164 133Q140 106 113 76T53 14V0H470Z" />
<glyph unicode="3" glyph-name="three" horiz-adv-x="500" d="M429 192Q429 251 394 297Q359 341 295 362Q363 385 392 427Q421 470 421 517Q421 593 365 643Q309 691 223 691Q164 691 125 674Q87 657 74 647V598Q81 603 93 609T124 625Q161 643 216 643Q283 643
327 605Q370 568 370 514Q370 457 322 420Q275 383 208 383H202V335H212Q252 335 282 324T335 292Q378 252 378 184Q378 119 333 79Q290 39 218 39Q169 39 128 50Q109 55 94 61T68 72V25Q86 16 131 3Q174 -9 223 -9Q314 -9 372 46Q429 101 429 192Z" />
<glyph unicode="4" glyph-name="four" horiz-adv-x="500" d="M471 263V304H377V691H357L14 280V263H326V0H377V263H471ZM326 304H85L326 595V304Z" />
<glyph unicode="5" glyph-name="five" horiz-adv-x="500" d="M425 212Q425 308 364 366Q333 395 294 410T203 423L145 420V635H386V682H97V364Q107 367 117 369T139 374Q159 378 186 378Q273 378 324 333T375 210Q375 135 327 87Q280 39 206 39Q154 39 108 60Q85
70 69 78T41 95V36Q62 23 107 7Q151 -9 209 -9Q303 -9 365 53Q425 114 425 212Z" />
<glyph unicode="6" glyph-name="six" horiz-adv-x="500" d="M462 176Q462 263 408 316Q355 369 268 369Q224 369 184 352Q147 337 119 314Q138 399 183 465Q256 572 375 655L345 691Q234 614 148 496Q61 377 61 233Q61 116 121 53Q180 -9 268 -9Q350 -9 406 44T462
176ZM411 174Q411 116 369 77Q326 39 265 39Q202 39 155 89Q110 138 110 226Q110 234 110 241Q110 249 111 256Q126 273 165 296Q206 321 264 321Q328 321 370 279Q411 238 411 174Z" />
<glyph unicode="7" glyph-name="seven" horiz-adv-x="500" d="M474 682H29V635H401L119 10L162 -9L474 682Z" />
<glyph unicode="8" glyph-name="eight" horiz-adv-x="500" d="M445 187Q445 244 416 288Q387 331 344 354Q389 387 410 424Q431 460 431 510Q431 584 379 637Q326 691 255 691Q176 691 123 638T70 507Q70 467 90 427Q109 389 159 354Q113 330 84 286Q56 243 56
185Q56 104 113 47Q169 -9 250 -9Q333 -9 389 47T445 187ZM380 507Q380 453 342 415T251 377Q199 377 159 415Q121 453 121 504Q121 566 157 604T251 642Q306 642 344 604Q380 566 380 507ZM394 185Q394 124 353 81Q312 39 252 39Q190 39 148 81Q107 122 107 184Q107
247 148 288T252 329Q311 329 353 287Q394 244 394 185Z" />
<glyph unicode="9" glyph-name="nine" horiz-adv-x="500" d="M435 444Q435 566 375 629Q316 691 223 691Q141 691 86 637Q32 583 32 500Q32 422 87 368Q143 315 223 315Q270 315 316 335Q350 351 375 368Q365 323 349 284T306 210Q268 158 221 113T116 28L144
-9Q301 106 369 219Q435 331 435 444ZM382 450Q382 444 382 438Q382 433 381 428Q362 408 324 387Q280 363 225 363Q167 363 124 404Q83 445 83 500Q83 561 124 602T225 643Q298 643 340 596T382 450Z" />
<glyph unicode=":" glyph-name="colon" horiz-adv-x="177" d="M120 352V450H56V352H120ZM120 0V98H56V0H120Z" />
<glyph unicode=";" glyph-name="semicolon" horiz-adv-x="177" d="M120 352V450H56V352H120ZM121 17V97H56V0H77Q77 -36 70 -53Q67 -62 59 -69T46 -82V-117Q60 -106 77 -92T103 -59Q121 -22 121 17Z" />
<glyph unicode="&lt;" glyph-name="less" horiz-adv-x="660" d="M592 110V159L128 351L592 543V592L68 372V330L592 110Z" />
<glyph unicode="=" glyph-name="equal" horiz-adv-x="660" d="M592 450V494H68V450H592ZM592 208V252H68V208H592Z" />
<glyph unicode="&gt;" glyph-name="greater" horiz-adv-x="660" d="M592 330V372L68 592V543L531 351L68 159V110L592 330Z" />
<glyph unicode="?" glyph-name="question" horiz-adv-x="281" d="M241 550Q241 607 210 650Q178 692 115 692Q91 692 74 685Q69 683 57 678T37 668T27 663L44 620Q46 621 58 627T87 641T114 649Q147 649 169 621Q190 594 190 555Q190 511 170 469Q150 428 116
373Q92 334 82 307Q74 280 74 252Q74 229 87 204Q98 181 113 165L130 180Q123 193 120 202T114 217Q113 222 113 228T112 240Q112 263 119 284Q126 306 149 339Q199 411 220 452Q241 494 241 550ZM150 0V97H85V0H150Z" />
<glyph unicode="@" glyph-name="at" horiz-adv-x="800" d="M708 87H670Q641 43 569 6Q497 -30 407 -30Q296 -30 209 53Q121 135 121 265Q121 391 206 477Q292 563 408 563Q517 563 591 491T665 324Q665 234 614 168Q563 103 517 103Q513 103 506 114Q503 118 503
130Q503 139 506 154L568 444H521L509 383Q495 421 460 440Q426 459 397 459Q309 459 255 386Q202 312 202 231Q202 152 242 111Q281 69 334 69Q374 69 409 92Q442 114 458 138Q464 97 476 82Q489 67 502 67Q571 67 633 143Q695 217 695 322Q695 432 614 513T406
594Q274 594 181 496Q89 398 89 269Q89 137 179 38T413 -61Q515 -61 598 -12Q681 36 708 87ZM491 312Q491 286 480 254T449 183Q407 105 343 105Q310 105 280 136Q250 166 250 228Q250 300 290 362Q333 426 393 426Q438 426 464 393Q491 360 491 312Z" />
<glyph unicode="A" glyph-name="A" horiz-adv-x="667" d="M662 0L348 687H319L4 0H59L167 236H500L608 0H662ZM480 280H187L333 601L480 280Z" />
<glyph unicode="B" glyph-name="B" horiz-adv-x="531" d="M508 185Q508 256 463 300Q420 342 350 354Q401 381 425 418T449 504Q449 589 390 636Q332 682 228 682H80V0H279Q386 0 447 49Q508 97 508 185ZM392 499Q392 434 345 399Q298 366 213 366H133V638H210Q300
638 346 604T392 499ZM452 180Q452 115 403 79Q353 44 269 44H133V322H252Q348 322 401 287Q452 252 452 180Z" />
<glyph unicode="C" glyph-name="C" horiz-adv-x="677" d="M655 56V111Q632 98 606 86T547 62Q485 40 412 40Q276 40 191 124T106 341Q106 470 193 556Q279 642 409 642Q475 642 535 623Q599 603 647 575V634Q597 660 534 676Q471 691 418 691Q260 691 154 591Q49
490 49 341Q49 186 154 89Q258 -9 421 -9Q480 -9 543 10Q575 20 603 31T655 56Z" />
<glyph unicode="D" glyph-name="D" horiz-adv-x="740" d="M689 340Q689 499 590 591Q491 682 322 682H79V0H329Q499 0 594 95T689 340ZM632 340Q632 206 545 125T315 44H132V638H317Q460 638 546 556Q632 473 632 340Z" />
<glyph unicode="E" glyph-name="E" horiz-adv-x="490" d="M460 0V44H133V321L444 322V365H133V638H453V682H80V0H460Z" />
<glyph unicode="F" glyph-name="F" horiz-adv-x="438" d="M431 638V682H78V0H131V335H400V379H131V638H431Z" />
<glyph unicode="G" glyph-name="G" horiz-adv-x="719" d="M662 49V310H466V266H610V82Q584 67 534 53Q486 40 428 40Q284 40 195 123Q107 205 107 342Q107 471 194 557Q282 642 411 642Q475 642 535 623Q594 606 650 573V633Q622 649 555 670Q489 691 411 691Q256
691 153 591Q50 492 50 343Q50 191 156 91Q260 -9 421 -9Q488 -9 553 8Q615 25 662 49Z" />
<glyph unicode="H" glyph-name="H" horiz-adv-x="719" d="M639 0V682H586V367H132V682H79V0H132V323H586V0H639Z" />
<glyph unicode="I" glyph-name="I" horiz-adv-x="208" d="M130 0V682H78V0H130Z" />
<glyph unicode="J" glyph-name="J" horiz-adv-x="208" d="M136 -7V682H83V4Q83 -71 59 -111Q37 -151 -13 -151L-45 -147L-40 -197L-6 -199Q25 -201 50 -188T96 -152Q136 -106 136 -7Z" />
<glyph unicode="K" glyph-name="K" horiz-adv-x="531" d="M129 0V342L486 0H553L197 342L522 682H456L129 342V682H76V0H129Z" />
<glyph unicode="L" glyph-name="L" horiz-adv-x="469" d="M469 0V44H132V682H79V0H469Z" />
<glyph unicode="M" glyph-name="M" horiz-adv-x="781" d="M702 0V682H649L390 365L130 682H77V0H130V607L390 286L649 607V0H702Z" />
<glyph unicode="N" glyph-name="N" horiz-adv-x="771" d="M694 0V682H641V84Q576 162 512 236T382 383T252 530T123 682H78V0H131V596L649 0H694Z" />
<glyph unicode="O" glyph-name="O" horiz-adv-x="823" d="M773 341Q773 490 669 591Q564 691 412 691Q258 691 154 590Q51 490 51 341Q51 192 155 91Q258 -9 412 -9Q565 -9 669 92T773 341ZM716 341Q716 217 627 128Q539 40 412 40Q284 40 196 128T108 341Q108
465 197 554Q285 642 412 642Q539 642 627 554Q716 465 716 341Z" />
<glyph unicode="P" glyph-name="P" horiz-adv-x="510" d="M488 500Q488 589 431 636Q374 682 271 682H78V0H131V319H266Q370 319 429 366T488 500ZM432 501Q432 434 387 398Q343 363 262 363H131V638H268Q344 638 388 601Q432 565 432 501Z" />
<glyph unicode="Q" glyph-name="Q" horiz-adv-x="823" d="M773 341Q773 491 669 591Q618 642 554 666T412 691Q258 691 154 590Q51 490 51 341Q51 191 154 91Q240 7 374 -7Q455 -79 547 -110Q644 -143 684 -143L680 -89Q680 -89 666 -88T632 -83T589 -75T550 -63Q522
-52 497 -38T448 -8Q581 6 669 91Q773 192 773 341ZM716 341Q716 217 627 128Q539 40 412 40Q284 40 196 128T108 341Q108 465 197 554Q285 642 412 642Q539 642 627 554Q716 465 716 341Z" />
<glyph unicode="R" glyph-name="R" horiz-adv-x="573" d="M595 0L467 196Q453 217 439 238T409 281Q378 323 351 340Q401 356 441 398Q480 438 480 504Q480 590 420 637Q360 682 251 682H79V0H132V327H236Q306 327 342 286Q360 266 377 241T413 187L533 0H595ZM423
505Q423 440 376 405Q330 371 245 371H132V638H250Q330 638 377 603Q423 569 423 505Z" />
<glyph unicode="S" glyph-name="S" horiz-adv-x="469" d="M427 173Q427 251 389 294Q352 335 248 373Q170 402 136 431Q103 459 103 515Q103 567 145 605Q185 642 246 642Q297 642 336 623Q356 613 372 605T400 590L399 648Q394 652 380 658T343 674Q297 691 240
691Q162 691 103 638Q46 585 46 513Q46 439 85 400Q123 361 207 332Q289 304 331 270Q371 237 371 176Q371 118 329 79T225 40Q186 40 146 58Q126 67 103 80T55 113V51Q66 43 83 34T126 13Q174 -9 234 -9Q313 -9 370 45T427 173Z" />
<glyph unicode="T" glyph-name="T" horiz-adv-x="573" d="M569 638V682H4V638H260V0H313V638H569Z" />
<glyph unicode="U" glyph-name="U" horiz-adv-x="698" d="M635 296V682H582V300Q582 181 519 111Q457 40 351 40Q244 40 180 109Q117 178 117 295V682H64V291Q64 159 144 74Q224 -9 350 -9Q476 -9 556 77Q635 164 635 296Z" />
<glyph unicode="V" glyph-name="V" horiz-adv-x="594" d="M593 682H538L298 105L56 682H3L290 -7H305L593 682Z" />
<glyph unicode="W" glyph-name="W" horiz-adv-x="1031" d="M1031 682H978L752 116L524 682H508L279 117L53 682H-1L273 -7H287L516 569L745 -7H758L1031 682Z" />
<glyph unicode="X" glyph-name="X" horiz-adv-x="688" d="M689 0L378 349L671 682H603L344 388L84 682H16L309 349L0 0H68L344 312L620 0H689Z" />
<glyph unicode="Y" glyph-name="Y" horiz-adv-x="583" d="M583 682H519L292 412L64 682H0L265 366V0H318V366L583 682Z" />
<glyph unicode="Z" glyph-name="Z" horiz-adv-x="635" d="M611 0V44H96L608 663L603 682H32V638H520L9 15L14 0H611Z" />
<glyph unicode="[" glyph-name="bracketleft" horiz-adv-x="302" d="M295 -220V-173H117V635H295V682H69V-220H295Z" />
<glyph unicode="\" glyph-name="backslash" horiz-adv-x="281" d="M278 -9L59 691H13L232 -9H278Z" />
<glyph unicode="]" glyph-name="bracketright" horiz-adv-x="302" d="M233 -220V682H7V635H185V-173H7V-220H233Z" />
<glyph unicode="^" glyph-name="asciicircum" horiz-adv-x="660" d="M550 430L333 688H327L111 430L142 402L330 627L519 402L550 430Z" />
<glyph unicode="_" glyph-name="underscore" horiz-adv-x="500" d="M507 -304V-254H-6V-304H507Z" />
<glyph unicode="`" glyph-name="grave" horiz-adv-x="333" d="M262 521L158 677H77L230 521H262Z" />
<glyph unicode="a" glyph-name="a" horiz-adv-x="510" d="M446 -2V449H399V418Q367 437 331 448Q298 458 264 458Q164 458 100 389Q37 320 37 212Q37 115 98 53Q160 -9 254 -9Q297 -9 331 1Q368 11 398 25V-2H446ZM399 75Q377 61 342 47Q309 35 263 35Q184 35
136 84Q88 132 88 213Q88 299 141 355T274 411Q316 411 351 396Q386 380 399 371V75Z" />
<glyph unicode="b" glyph-name="b" horiz-adv-x="510" d="M471 236Q471 337 416 398Q360 458 269 458Q226 458 186 440Q146 424 110 383V682H62L63 25Q94 11 136 0Q175 -9 216 -9Q335 -9 403 59T471 236ZM421 234Q421 151 364 94Q306 38 223 38Q183 38 151 46Q122
53 110 60V333Q121 346 136 359T172 388Q212 418 268 418Q335 418 378 366Q421 312 421 234Z" />
<glyph unicode="c" glyph-name="c" horiz-adv-x="417" d="M387 14V64Q369 56 338 47Q306 38 269 38Q186 38 140 89Q93 139 93 224Q93 306 140 359Q186 411 263 411Q303 411 330 401Q344 396 356 392T379 383V436Q365 441 352 444T324 452Q295 458 262 458Q161
458 101 389Q42 321 42 224Q42 117 102 54T267 -9Q305 -9 340 0Q357 5 368 8T387 14Z" />
<glyph unicode="d" glyph-name="d" horiz-adv-x="510" d="M450 0V682H402V422Q383 434 345 447Q309 458 276 458Q171 458 106 393T41 224Q41 125 107 58T269 -9Q308 -9 338 1Q368 12 402 35V0H450ZM401 79Q396 75 386 69T360 54Q331 38 280 38Q199 38 145 92Q92
145 92 224Q92 306 143 359Q192 411 273 411Q317 411 350 396Q385 380 401 368V79Z" />
<glyph unicode="e" glyph-name="e" horiz-adv-x="479" d="M446 241Q446 335 390 397Q335 458 247 458Q156 458 98 392Q40 327 40 231Q40 126 105 58Q169 -9 271 -9Q324 -9 369 11Q391 21 407 31T437 51V105Q427 96 411 86T373 62Q329 38 275 38Q196 38 143 91Q90
142 90 221Q90 227 90 232Q90 237 91 241H446ZM387 280H96Q110 329 133 358Q176 411 248 411Q308 411 343 376Q376 343 387 280Z" />
<glyph unicode="f" glyph-name="f" horiz-adv-x="240" d="M332 627V672Q327 676 303 683Q277 691 251 691Q182 691 138 644T94 523V449H11V410H94V0H142V410H229V449H142V508Q142 578 169 611T248 644Q276 644 303 636Q315 632 322 630T332 627Z" />
<glyph unicode="g" glyph-name="g" horiz-adv-x="510" d="M447 -92H446V449H399V418Q367 437 331 448Q298 458 264 458Q164 458 100 389Q37 320 37 212Q37 115 98 53Q160 -9 254 -9Q297 -9 331 1Q368 11 398 25V-92Q398 -108 386 -122T355 -148T317 -166T283 -173Q248
-173 217 -153Q203 -143 192 -127T170 -91L120 -92Q141 -154 186 -192Q230 -229 283 -229Q307 -229 335 -218T389 -187T430 -143T447 -92ZM399 75Q377 61 342 47Q309 35 263 35Q184 35 136 84Q88 132 88 213Q88 299 141 355T274 411Q316 411 351 396Q386 380 399
371V75Z" />
<glyph unicode="h" glyph-name="h" horiz-adv-x="490" d="M428 0V271Q428 359 382 408Q335 458 257 458Q213 458 178 438Q144 419 110 367V682H62V0H110V317Q135 355 168 383Q202 411 257 411Q317 411 349 370Q380 328 380 256V0H428Z" />
<glyph unicode="i" glyph-name="i" horiz-adv-x="188" d="M118 600V682H70V600H118ZM118 0V449H70V0H118Z" />
<glyph unicode="j" glyph-name="j" horiz-adv-x="188" d="M116 600V682H68V600H116ZM116 -32V449H68V-47Q68 -127 44 -158Q19 -189 -24 -189H-28L-15 -230Q32 -230 74 -188Q116 -148 116 -32Z" />
<glyph unicode="k" glyph-name="k" horiz-adv-x="427" d="M463 0L179 236L425 449H362L114 236L398 0H463ZM107 0V236V682H59V0H107Z" />
<glyph unicode="l" glyph-name="l" horiz-adv-x="188" d="M118 0V682H70V0H118Z" />
<glyph unicode="m" glyph-name="m" horiz-adv-x="771" d="M709 0V271Q709 354 669 406Q630 458 564 458H552Q494 458 456 423Q417 387 398 351Q370 414 335 436Q301 458 263 458H251Q208 458 173 438Q139 418 107 367V449H60V0H108V316Q120 335 133 352T163 383Q196
411 245 411Q302 411 332 370Q361 329 361 256V0H409V306Q431 342 464 377Q497 411 541 411Q598 411 630 370Q661 330 661 256V0H709Z" />
<glyph unicode="n" glyph-name="n" horiz-adv-x="490" d="M428 0V271Q428 359 382 408Q335 458 257 458Q212 458 177 438Q143 419 109 367V449H62V0H110V317Q135 355 168 383Q202 411 257 411Q317 411 349 370Q380 328 380 256V0H428Z" />
<glyph unicode="o" glyph-name="o" horiz-adv-x="542" d="M500 224Q500 323 434 391Q370 458 271 458Q173 458 107 391Q42 323 42 224Q42 125 108 58Q172 -9 271 -9Q369 -9 435 58Q500 126 500 224ZM449 224Q449 147 397 92Q344 38 271 38Q197 38 145 93Q93 146
93 224Q93 302 145 357Q197 411 271 411Q345 411 397 356Q449 303 449 224Z" />
<glyph unicode="p" glyph-name="p" horiz-adv-x="510" d="M469 225Q469 328 405 393Q340 458 241 458Q209 458 175 449Q139 440 112 424V449H63V-230H111V25Q128 17 144 11T178 -1Q213 -9 251 -9Q341 -9 405 61T469 225ZM416 224Q416 143 366 90Q317 38 235 38Q192
38 161 50Q132 60 111 71V379Q118 383 129 388T156 399Q186 411 229 411Q309 411 363 357Q416 304 416 224Z" />
<glyph unicode="q" glyph-name="q" horiz-adv-x="510" d="M446 -230V449H399V418Q367 437 331 448Q298 458 264 458Q164 458 100 389Q37 320 37 212Q37 115 98 53Q160 -9 254 -9Q297 -9 331 1Q368 11 398 25V-230H446ZM399 75Q377 61 342 47Q309 35 263 35Q184
35 136 84Q88 132 88 213Q88 299 141 355T274 411Q316 411 351 396Q386 380 399 371V75Z" />
<glyph unicode="r" glyph-name="r" horiz-adv-x="333" d="M373 404Q366 413 335 435Q303 458 270 458Q250 458 230 454T188 433Q168 416 149 397T111 348V449H63V0H111V283Q131 319 172 364Q214 411 256 411Q275 411 298 397Q309 390 320 381T345 360L373 404Z" />
<glyph unicode="s" glyph-name="s" horiz-adv-x="354" d="M323 116Q323 170 286 200Q247 231 191 250Q147 266 117 286Q90 305 90 338Q90 369 117 392Q142 414 189 414Q221 414 254 400Q270 393 283 385T309 368V419Q294 432 261 445Q244 451 226 454T185 458Q131
458 87 423Q44 389 44 337Q44 289 74 261Q105 231 160 212Q233 185 256 164Q277 143 277 117Q277 81 249 59Q220 38 178 38Q143 38 105 51Q67 63 41 80V32Q59 21 93 5Q129 -10 178 -10Q240 -10 281 27Q323 64 323 116Z" />
<glyph unicode="t" glyph-name="t" horiz-adv-x="302" d="M293 13V60Q272 50 252 44T214 38Q171 38 157 55Q144 71 144 124V410H270V449H144V598H129L96 576V449H-25V410H96V91Q96 44 124 17Q153 -9 201 -9Q227 -9 248 -3Q259 0 270 4T293 13Z" />
<glyph unicode="u" glyph-name="u" horiz-adv-x="490" d="M428 0V449H380V135Q363 102 324 70Q286 38 234 38Q175 38 142 76Q110 114 110 182V449H62V172Q62 84 109 37Q155 -9 240 -9Q277 -9 314 11Q349 30 380 78V0H428Z" />
<glyph unicode="v" glyph-name="v" horiz-adv-x="427" d="M427 449H380L218 71L49 449H0L204 -9H234L427 449Z" />
<glyph unicode="w" glyph-name="w" horiz-adv-x="708" d="M707 449H660L504 83L363 449H341L200 83L47 449H0L192 -9H214L353 356L491 -9H514L707 449Z" />
<glyph unicode="x" glyph-name="x" horiz-adv-x="479" d="M482 449H420L244 263L68 449H6L211 230L6 0H68L244 197L420 0H481L276 230L482 449Z" />
<glyph unicode="y" glyph-name="y" horiz-adv-x="417" d="M422 449H373L219 135L57 449H5L195 86L38 -230H87L422 449Z" />
<glyph unicode="z" glyph-name="z" horiz-adv-x="396" d="M385 0V44H90L385 434L381 449H26V405H307L10 15L15 0H385Z" />
<glyph unicode="{" glyph-name="braceleft" horiz-adv-x="333" d="M287 -220V-166H271Q238 -166 218 -146Q199 -128 199 -76V50Q199 129 172 173Q145 214 103 231Q146 248 172 290Q199 332 199 412V538Q199 589 219 609Q240 628 271 628H287V682H274Q200 682 171
638Q143 595 143 532V387Q143 331 120 299Q98 269 50 261V201Q98 193 120 163Q143 131 143 75V-70Q143 -132 172 -176T274 -220H287Z" />
<glyph unicode="|" glyph-name="bar" horiz-adv-x="222" d="M134 -250V750H86V-250H134Z" />
<glyph unicode="}" glyph-name="braceright" horiz-adv-x="333" d="M284 201V261Q236 269 213 299Q190 331 190 387V532Q190 594 161 638T59 682H46V628H62Q95 628 115 608Q134 590 134 538V412Q134 332 162 289Q189 248 231 231Q189 214 161 172Q134 130 134
50V-76Q134 -127 114 -147Q93 -166 62 -166H46V-220H59Q133 -220 162 -176Q190 -131 190 -70V75Q190 131 214 163Q236 193 284 201Z" />
<glyph unicode="~" glyph-name="asciitilde" horiz-adv-x="660" d="M594 392Q578 381 562 370T526 348Q489 325 456 325Q415 325 334 365Q251 404 204 404Q155 404 115 377Q95 364 83 356T67 345V290Q80 301 95 312T131 334Q171 357 205 357Q246 357 327 317Q409
278 457 278Q504 278 545 305Q565 318 577 326T593 337L594 392Z" />
</font>
</defs>
</svg>
